#TITLE:Candy Galy;
#SUBTITLE:Beatmania IIDX Gold;
#ARTIST:Risk Junk-G;
#TITLETRANSLIT:;
#SUBTITLETRANSLIT:;
#ARTISTTRANSLIT:;
#CREDIT:;
#BANNER:Candy Galy-bn.png;
#BACKGROUND:Candy Galy-bg.png;
#LYRICSPATH:;
#CDTITLE:;
#MUSIC:Candy Galy.mp3;
#OFFSET:0.000;
#SAMPLESTART:100.000;
#SAMPLELENGTH:12.000;
#SELECTABLE:YES;
#BPMS:0.000=184.060;
#STOPS:64.000=0.100
,130.000=0.200
,131.500=0.200
,223.750=0.200
;
#BGCHANGES:;
// cache tags:
#FIRSTBEAT:1.000;
#LASTBEAT:365.500;
#SONGFILENAME:Songs/Music V.I.P ^_^/Candy Galy/Candy Galy.sm;
#HASMUSIC:1;
#HASBANNER:1;
#MUSICLENGTH:124.290;
// end cache tags

//---------------dance-single - INSANE MINES LOL----------------
#NOTES:
     dance-single:
     INSANE MINES LOL:
     Challenge:
     13:
     1.000,1.000,1.000,0.507,1.000,965.000,280.000,63.000,125.000,48.000:

0000
0000
0000
0000
2101
3000
0010
0000
0101
0000
MMMM
0000
0010
0000
1100
0000
,
1001
0011
MMMM
0010
1010
1100
0010
0011
,
0101
1010
1001
MMMM
0110
1000
1100
0011
,
1010
0110
0011
MMMM
0110
1100
1010
0101
,
0011
0000
0110
0000
1010
0000
1002
0003
0110
0000
0011
0000
MMMM
0000
1100
0000
,
1010
0101
0011
MMMM
1100
0110
1100
0011
,
1001
0110
1010
MMMM
0110
1001
0101
1010
,
1100
0011
0101
MMMM
1010
0110
0011
1100
,
0110
0000
0101
0010
1101
0000
1010
0000
0110
0000
0101
0000
0001
1000
0001
0010
,
0001
0100
0001
0000
0000
0000
1010
0000
1100
0000
1010
0000
0010
1000
0010
0100
,
0010
0001
0010
0000
0000
0000
1100
0000
1001
0000
0000
0000
0001
0100
0001
0010
,
0001
0000
1010
0000
1100
0000
0000
0000
0011
0000
1100
0000
0011
0000
0100
1000
,
0100
0001
0100
0010
2101
3000
0110
0000
1010
0000
1100
0000
0010
1000
0010
0001
,
0010
0000
1100
0000
0101
0000
0000
0000
1010
0000
0110
0000
0101
0000
1000
0100
,
1000
0010
1001
0000
0000
0000
0110
0000
1001
0000
MMMM
0000
1010
0000
0110
0000
,
1100
0000
0011
0000
0000
0000
1000
0100
1000
0010
1000
0001
1000
0010
1000
0100
,
1010
0000
1100
0000
0021
0030
1101
0000
1011
0000
0010
1000
0100
0000
0011
0000
,
1100
0000
0011
0000
MMMM
0000
1110
0000
0111
0000
0001
1000
0010
0000
1001
0000
,
0110
0000
1001
0000
MMMM
0000
1011
0000
1101
0000
0010
1000
0100
0000
1010
0000
,
0101
0000
1010
0000
MMMM
0000
0111
0000
1011
0000
0100
0010
0001
0000
1100
0000
,
1100
0010
0002
0003
MMMM
0000
1110
0000
1011
0000
0100
1000
0010
0000
0101
0000
,
1100
0000
0101
0000
MMMM
0000
1110
0000
1101
0000
0010
1000
0100
0000
0011
0000
,
0101
0000
0011
0000
MMMM
0000
1101
0000
0111
0000
1000
0001
0100
0000
1010
0000
,
0110
0000
1010
0000
MMMM
0000
0100
0010
1001
0000
0001
0010
1100
0000
0001
0100
,
1010
0000
1010
0100
0002
0003
1010
0000
0101
0000
0011
1000
0011
0000
1100
0000
,
0110
0000
1100
0000
MMMM
0000
0101
0010
0101
0000
1010
0100
1010
0000
0011
0000
,
0110
0000
0011
0000
MMMM
0000
1010
0000
0110
0000
1010
0100
0011
0000
1001
0000
,
0110
0000
1001
0000
MMMM
0000
0011
1000
0110
0000
1100
0001
0110
0000
1100
0000
,
1100
0001
1100
0000
MMMM
0000
1010
0000
1100
0000
1001
0010
1001
0000
0110
0000
,
0011
0000
0101
0000
MMMM
0000
1010
0000
0101
0000
0110
1000
0110
0000
0101
0000
,
1010
0000
0101
0000
MMMM
0000
0011
0000
1010
0000
1100
0001
12M0
0300
1010
0000
,
1001
0000
0101
0000
102M
0030
1100
0001
0M20
0030
0101
1000
0M02
0003
1001
0010
,
M200
0300
0011
0100
1011
0000
1011
0000
1011
0000
1110
0000
1110
0000
1M11
0000
,
M111
0000
0000
1M11
0000
0000
11M1
0000
0000
111M
0000
0000
11M1
0000
0000
0000
0000
0000
0000
0000
0000
0100
0001
0010
,
0000
0000
0000
0100
0000
0000
0000
0000
0000
0001
0000
0000
0000
0000
0000
0100
0000
0000
0000
0000
0000
1000
0100
0001
,
0000
0000
0000
0010
0000
0000
0000
0000
0000
0001
0000
0000
0000
0000
0000
0100
0000
0000
0000
0000
0000
0010
0001
0100
,
0000
0000
0000
1000
0000
0000
0000
0000
0000
0010
0000
0000
0000
0000
0000
0100
0000
0000
0000
0000
0000
0001
1000
0100
,
0000
0000
0000
0010
0000
0000
0000
0000
0000
1000
0000
0000
0000
0000
0000
0100
0000
0000
0000
0000
0000
0010
0001
0000
,
0000
0000
0000
0100
0000
0000
0000
0000
0000
1000
0000
0000
0000
0000
0000
0000
0000
0000
0000
0000
0000
0010
0100
1000
,
0000
0000
0000
0100
0000
0000
0000
0000
0000
0010
0000
0000
0000
0000
0000
1000
0000
0000
0000
0000
0000
0001
0100
1000
,
0000
0100
0000
0010
0000
1010
0000
0110
,
0000
0101
0000
0011
0000
0110
0100
0011
,
0010
0110
1000
0100
0000
0001
0100
1100
,
0010
0100
0001
1000
0100
0000
0100
0101
,
0001
1000
0100
0010
1100
0000
0100
1010
,
1010
0100
0010
0001
0100
0000
0100
0100
,
1100
0010
0100
0001
1010
0010
0100
0001
,
0011
1000
0110
0001
1100
1000
1010
0010
,
0011
0000
0101
0000
0110
0000
0011
0001
,
0101
0100
0110
0000
1010
1000
1100
0000
,
0021
0030
0101
0100
1100
0000
1010
0010
,
0011
0001
0101
0000
1001
0000
0101
0000
,
0011
0010
0110
0000
1100
0000
0101
0000
,
0011
0110
1100
1001
,
0001
0000
0010
0000
0100
0000
1000
0000
0001
0000
0010
0000
0100
0000
1000
0001
,
0010
0100
1000
0001
0010
0100
1000
0001
0010
0100
1000
0001
0010
0100
1000
1001
,
0000
0000
1110
0000
0111
0000
1101
0000
1011
0000
1111
0000
0000
0100
0000
0010
,
0000
1000
0000
0001
0000
0100
0010
1000
0100
0010
0001
0010
0100
1001
0010
0100
,
1000
0001
0010
0100
0001
1000
0100
0010
1000
0001
0100
0010
1000
0001
0100
0010
,
1000
0000
0100
0000
0010
0000
0100
0000
1000
0000
0020
0030
0001
0000
0200
0300
1000
0000
0002
0003
0100
0000
0020
0030
1000
0000
0100
0000
0010
0000
1000
0000
,
0001
0010
0100
1000
0001
0100
1000
0001
0010
0100
1000
0100
0010
0001
0010
1000
,
0001
0000
0010
0000
1000
0000
0100
0000
1000
0000
0020
0030
0100
0000
0001
0000
1000
0000
0100
0000
0002
0003
1000
0000
0010
0000
0100
0000
0010
0000
1000
0000
,
0100
0001
0010
1000
0100
0010
0001
0010
0100
1000
0010
0100
0001
0010
0100
1000
,
0010
0000
0100
0000
0001
0000
1000
0000
0010
0000
0001
0000
2000
3000
0200
0300
0010
0000
0001
0000
1000
0000
0020
0030
0100
0000
0001
0000
0010
0000
0100
0000
,
1000
0000
0100
0000
0010
0000
0100
0000
1000
0000
0010
0000
0100
0000
1000
0000
0200
0300
0020
0030
0001
0000
1000
0000
0200
0300
2000
3000
0001
0000
0010
0000
,
2000
3000
0200
0300
0001
0000
0200
0300
0020
0030
1000
0000
0020
0030
0002
0003
1000
0000
0100
0000
0010
0000
0100
0000
1001
0000
0010
0000
0100
0000
0010
0000
,
0001
0010
1000
0100
0010
0001
0100
0010
1000
0100
0001
0100
0010
1000
0001
0100
,
0010
0000
1000
0000
0001
0000
0100
0000
0020
0030
1000
0000
0002
0003
0100
0000
2000
3000
0010
0000
0200
0300
0010
0000
1000
0000
0100
0000
0010
0000
0001
0000
,
0100
0010
1000
0100
0001
0010
1000
0001
0100
0010
1000
0100
0010
0001
1000
0001
,
0100
0000
0010
0000
2000
3000
0010
0000
0200
0300
0001
0000
0020
0030
0100
0000
0002
0003
0100
0000
0020
0030
0100
0000
0001
0000
0100
0000
1000
0000
0100
0000
,
0010
0001
0010
1000
0010
0001
0010
0100
1000
0010
0100
0001
0010
0001
0010
0001
,
0010
0000
0100
0000
1000
0000
0100
0000
0010
0000
0001
0000
0100
0000
0020
0030
2000
3000
0100
0000
0010
0000
0001
0000
0010
0000
0200
0300
1000
0000
0010
0000
,
0100
0000
0001
0000
0010
0000
1000
0000
0100
0000
0001
0000
1000
0000
0020
0030
0002
0003
1000
0000
0010
0000
0002
0003
0200
0300
1000
0000
0000
0000
0200
0300
,
0020
0030
0100
0000
1000
0000
0100
0000
0020
0030
2000
3000
0100
0000
0001
0000
1000
0000
0001
0000
1000
0000
0001
0000
0110
0000
0000
0000
1001
0000
0000
0000
,
0110
0000
0000
1001
0000
0000
0001
0010
0100
1000
0100
0010
0001
0010
0100
1000
0000
0000
1100
0000
0000
0011
0000
0000
,
1100
0000
0000
0011
0000
0000
1000
0100
0010
0001
0010
0100
1000
0100
0010
0001
0000
0000
1010
0000
0000
0101
0000
0000
,
1010
0000
0000
0101
0000
0000
1000
0010
0100
0001
0100
0010
1000
0010
0100
0001
0000
0000
0000
0000
0000
0001
0100
0010
,
1000
0000
0010
0000
0100
0000
0001
0000
0010
0000
0100
0000
1000
0000
0001
0000
1000
0000
0100
0000
0010
0000
0001
0000
1000
0000
0010
0000
0100
0000
0001
0000
0010
0000
0100
0000
1001
0000
0000
0010
0000
0000
0100
0000
0000
0001
0000
0000
,
1000
0001
0100
0010
1000
0001
0100
0010
1000
0100
0010
0001
1010
0100
1000
0001
,
0100
0010
1000
0100
0001
0010
0100
0010
0001
1000
0100
0010
1100
0001
0010
0100
,
1000
0001
0100
0010
1000
0100
0001
0010
0100
1000
0001
0100
0011
1000
0101
0010
,
1001
0100
1010
0001
0110
1000
0101
1000
0110
0001
1010
0100
0011
1000
0100
0010
,
0001
0100
0010
0001
0010
0100
1000
0100
0010
0100
1000
0001
0010
0100
0010
0001
,
0100
0000
0010
0000
1000
0000
0100
0000
0020
0030
0001
0000
2000
3000
0100
0000
0002
0003
0100
0000
2000
3000
0010
0000
0001
0000
0100
0000
0010
0000
0001
0000
,
0010
0100
0010
0100
1000
0001
0010
0100
1000
0001
0100
0010
1000
0100
0001
0010
,
1000
0000
0100
0000
0020
0030
1000
0000
0002
0003
0010
0000
0200
0300
0001
0000
1000
0000
0200
0300
0010
0000
0002
0003
1000
0000
0100
0000
1000
0000
0100
0000
,
1000
0100
0010
0001
0010
0001
0010
0100
1000
0100
0010
0100
1001
0010
1000
0100
,
0001
0000
0010
0000
0100
0000
0001
0000
0010
0000
1000
0000
0200
0300
0020
0030
0001
0000
1000
0000
0100
0000
0010
0000
2000
3000
0001
0000
0010
0000
1000
0000
,
0100
0001
0010
0100
1001
0100
0010
1000
0011
0100
1010
0001
1110
0001
0100
0010
,
1101
0010
0100
1000
0111
1000
0001
0100
1011
0000
MMMM
0000
1M11
0000
1M11
0000
,
1M11
MMMM
11M1
11M1
11M1
MMMM
111M
11M1
,
M111
1M11
1111
MMMM
0000
0000
0000
0000
;
